В пустыне смерти / Into the Badlands (2018) WEBRip [XviD/400p] (3 сезон: 1-5 серии из 16) [IdeaFilm]

24-Апр-2018 18:30

В пустыне смерти / Into the Badlands (2018) WEBRip [XviD/400p] (3 сезон: 1-5 серии из 16) [IdeaFilm]


picТелекомпания: США, Millar Gough Ink, Double Feature Films, AMC Studios
Жанр: Боевик, драма, приключения, экранизация
Режиссер: Дэвид Добкин
В ролях: Дэниэл Ву, Орла Брэйди, Сара Болджер, Арамис Найт, Эмили Бичем, Оливер Старк, Мадлен Манток, Элли Иоаннидес, Мартон Чокаш, Майкл Сил, Стивен Лэнг, Эллен Холлман, Тересса Лиэн, Джерри Таббс, Хайлен Бойд, Лэнс Хенриксен,, Джастин Лебрун
Описание:
Приключенческий боевик о двух друзьях. В пустыне смерти, какие испытания предстоит пройти главным героям на пути просвещения. Ради обретения высшей мудрости мастер боевых искусств Санни и его юный напарник решают пройти через неизведанные земли. Они знают, что там их будут встречать враждебно, но ради высшей цели главные герои готовы вынести всё. В основу сюжета сериала был положен китайский роман под названием «Путешествие на Запад». Во время путешествия Санни покажет в полной мере своё мастерство, а его юный друг сможет многому научиться, и владению собственным телом, и контролю над собственным духом.


Перевод: Профессиональный многоголосый - IDEAFILM
Продолжительность: ~ 00:45:00
Качество видео: WEBRip
Субтитры: Отсутствуют
Видео: XviD MPEG-4, ~ 1800 Кбит/с, 720x400
Аудио: Русский (AС3, 6 ch, 384 Кбит/с)

Mediainfo:

Video
ID                          : 0
Format                      : MPEG-4 Visual
Format profile              : Advanced Simple@L5
Format settings, BVOP       : 2
Format settings, QPel       : No
Format settings, GMC        : No warppoints
Format settings, Matrix     : Default (H.263)
Muxing mode                 : Packed bitstream
Codec ID                    : XVID
Codec ID/Hint               : XviD
Duration                    : 43 min 2 s
Bit rate                    : 1 776 kb/s
Width                       : 720 pixels
Height                      : 400 pixels
Display aspect ratio        : 16:9
Frame rate                  : 23.976 (24000/1001) FPS
Color space                 : YUV
Chroma subsampling          : 4:2:0
Bit depth                   : 8 bits
Scan type                   : Progressive
Compression mode            : Lossy
Bits/(Pixel*Frame)          : 0.257
Stream size                 : 547 MiB (82%)
Writing library             : XviD 73
Audio
ID                          : 1
Format                      : AC-3
Format/Info                 : Audio Coding 3
Format settings, Endianness : Big
Codec ID                    : 2000
Duration                    : 43 min 2 s
Bit rate mode               : Constant
Bit rate                    : 384 kb/s
Channel(s)                  : 6 channels
Channel positions           : Front: L C R, Side: L R, LFE
Sampling rate               : 48.0 kHz
Frame rate                  : 31.250 FPS (1536 SPF)
Bit depth                   : 16 bits
Compression mode            : Lossy
Stream size                 : 118 MiB (18%)
Alignment                   : Aligned on interleaves
Interleave, duration        : 42  ms (1.00 video frame)
Interleave, preload duratio : 512  ms
Service kind                : Complete Main

Скриншоты

pic pic pic pic

Добавлена 5 серия.