Закон и порядок: Специальный корпус / Law & Order: Special Victims Unit (2017-2018) WEBRip [H.264/720p] (19 сезон: 1-20 серии из 24) [IdeaFilm]

29-Сен-2017 21:53

Закон и порядок: Специальный корпус / Law & Order: Special Victims Unit (2017-2018) WEBRip [H.264/720p] (19 сезон: 1-20 серии из 24) [IdeaFilm]


picТелекомпания: США, NBC Universal Television, Studios USA Television, Universal Media Studios (UMS)
Жанр: Драма, криминал, детектив
Режиссер: Дэвид Платт,, Тэд Котчев, Рик Уоллас, Канстантин Макриз, Джонатан Каплан, Питер Лето, АМайкл МакЛарен, Артур У. Форни
В ролях: Маришка Харгитей, Кристофер Мелони, Ричард Белцер, Дэнн Флорек, Мишель Хёрд, Стефани Марч, Айс-Ти, Б. Д. Вонг, Дайан Нил, Тамара Тюни
Описание:
Сериал рассказывает о так называемом «Специальном корпусе» полиции, который занимается расследованиями преступлений на сексуальной почве и посягательств против детей. Действие сериала разворачивается в Нью-Йорке. Главными персонажами сериала являются работники специального корпуса. Из-за особой жестокости преступлений работники отдела постоянно находятся на грани нервного срыва, что сказывается на их личной жизни, а также на взаимоотношениях друг с другом.


Перевод: Профессиональный многоголосый - IDEAFILM
Продолжительность: ~ 00:45:00
Качество видео: WEBRip 720p
Субтитры: Отсутствуют
Видео: MPEG-4 AVC, ~ 7000 Кбит/с, 1280x720
Аудио: Русский, английский (AС3, 6 ch, 384 Кбит/с)

Mediainfo:

General
Unique ID                   : 208931622904100915070251245524158101452 (0x9D2EC452C65861C1888CEF3F3A11B7CC)
Complete name               : ...\Law.and.Order.SVU.S19E01.WEBRip.720p.IdeaFilm.mkv
Format                      : Matroska
Format version              : Version 4 / Version 2
File size                   : 2.39 GiB
Duration                    : 43 min 34 s
Overall bit rate            : 7 861 kb/s
Encoded date                : UTC 2017-09-29 18:34:43
Writing application         : mkvmerge v15.0.0 ('Duel with the Devil') 64-bit
Writing library             : libebml v1.3.5 + libmatroska v1.4.5
Video
ID                          : 1
Format                      : AVC
Format/Info                 : Advanced Video Codec
Format profile              : Main@L4.1
Format settings, CABAC      : Yes
Format settings, RefFrames  : 4 frames
Codec ID                    : V_MPEG4/ISO/AVC
Duration                    : 43 min 34 s
Bit rate                    : 6 845 kb/s
Width                       : 1 280 pixels
Height                      : 720 pixels
Display aspect ratio        : 16:9
Frame rate mode             : Constant
Frame rate                  : 23.976 (24000/1001) FPS
Standard                    : NTSC
Color space                 : YUV
Chroma subsampling          : 4:2:0
Bit depth                   : 8 bits
Scan type                   : Progressive
Bits/(Pixel*Frame)          : 0.310
Stream size                 : 2.08 GiB (87%)
Language                    : English
Default                     : Yes
Forced                      : No
Color range                 : Limited
Color primaries             : BT.709
Transfer characteristics    : BT.709
Matrix coefficients         : BT.709
Audio #1
ID                          : 2
Format                      : AC-3
Format/Info                 : Audio Coding 3
Format settings, Endianness : Big
Codec ID                    : A_AC3
Duration                    : 43 min 34 s
Bit rate mode               : Constant
Bit rate                    : 384 kb/s
Channel(s)                  : 6 channels
Channel positions           : Front: L C R, Side: L R, LFE
Sampling rate               : 48.0 kHz
Frame rate                  : 31.250 FPS (1536 SPF)
Bit depth                   : 16 bits
Compression mode            : Lossy
Stream size                 : 120 MiB (5%)
Title                       : IDEAFILM
Language                    : Russian
Service kind                : Complete Main
Default                     : Yes
Forced                      : No
Audio #2
ID                          : 3
Format                      : AC-3
Format/Info                 : Audio Coding 3
Codec ID                    : A_AC3
Duration                    : 42 min 53 s
Bit rate                    : 640 kb/s
Channel(s)                  : 6 channels
Sampling rate               : 48.0 kHz
Frame rate                  : 31.250 FPS (1536 SPF)
Compression mode            : Lossy
Stream size                 : 196 MiB (8%)
Language                    : English
Default                     : No
Forced                      : No

Скриншоты

pic pic
pic pic

Добавлена 20 серия.

Последний раз редактировалось: Daiver (2018-05-18 00:17), всего редактировалось 5 раз(а)
10-Фев-2018 14:10
Я всё конечно понимаю, у вас контракт, но можно другой рекламный ролик? "Нахуй кино", это уже перегиб
08-Апр-2018 13:03
Планируется продолжение перевода?
12-Апр-2018 15:31
Добрый день! Вы будете дальше переводить сериал? Мы же волнуемся. Сделайте одолжение, ответьте нам. Или мы все недостойны Вашего внимания???
24-Апр-2018 17:59
Спасибо
25-Апр-2018 16:00
Спасибо!