Закон и порядок: Специальный корпус / Law & Order: Special Victims Unit (2017-2018) WEBRip [XviD/400p] (19 сезон: 1-20 серии из 24) [IdeaFilm]

29-Сен-2017 21:53

Закон и порядок: Специальный корпус / Law & Order: Special Victims Unit (2017-2018) WEBRip [XviD/400p] (19 сезон: 1-20 серии из 24) [IdeaFilm]


picТелекомпания: США, NBC Universal Television, Studios USA Television, Universal Media Studios (UMS)
Жанр: Драма, криминал, детектив
Режиссер: Дэвид Платт,, Тэд Котчев, Рик Уоллас, Канстантин Макриз, Джонатан Каплан, Питер Лето, АМайкл МакЛарен, Артур У. Форни
В ролях: Маришка Харгитей, Кристофер Мелони, Ричард Белцер, Дэнн Флорек, Мишель Хёрд, Стефани Марч, Айс-Ти, Б. Д. Вонг, Дайан Нил, Тамара Тюни
Описание:
Сериал рассказывает о так называемом «Специальном корпусе» полиции, который занимается расследованиями преступлений на сексуальной почве и посягательств против детей. Действие сериала разворачивается в Нью-Йорке. Главными персонажами сериала являются работники специального корпуса. Из-за особой жестокости преступлений работники отдела постоянно находятся на грани нервного срыва, что сказывается на их личной жизни, а также на взаимоотношениях друг с другом.


Перевод: Профессиональный многоголосый - IDEAFILM
Продолжительность: ~ 00:45:00
Качество видео: WEBRip
Субтитры: Отсутствуют
Видео: XviD MPEG-4, ~ 1800 Кбит/с, 720x400
Аудио: Русский (AС3, 6 ch, 384 Кбит/с)

Mediainfo:

General
Complete name               : ...\Law.and.Order.SVU.S19E01.WEBRip.IdeaFilm.avi
Format                      : AVI
Format/Info                 : Audio Video Interleave
File size                   : 673 MiB
Duration                    : 43 min 34 s
Overall bit rate            : 2 161 kb/s
Writing library             : VirtualDub build 35491/release
Video
ID                          : 0
Format                      : MPEG-4 Visual
Format profile              : Advanced Simple@L5
Format settings, BVOP       : 2
Format settings, QPel       : No
Format settings, GMC        : No warppoints
Format settings, Matrix     : Default (H.263)
Muxing mode                 : Packed bitstream
Codec ID                    : XVID
Codec ID/Hint               : XviD
Duration                    : 43 min 34 s
Bit rate                    : 1 767 kb/s
Width                       : 720 pixels
Height                      : 400 pixels
Display aspect ratio        : 16:9
Frame rate                  : 23.976 (24000/1001) FPS
Color space                 : YUV
Chroma subsampling          : 4:2:0
Bit depth                   : 8 bits
Scan type                   : Progressive
Compression mode            : Lossy
Bits/(Pixel*Frame)          : 0.256
Stream size                 : 551 MiB (82%)
Writing library             : XviD 73
Audio
ID                          : 1
Format                      : AC-3
Format/Info                 : Audio Coding 3
Format settings, Endianness : Big
Codec ID                    : 2000
Duration                    : 43 min 34 s
Bit rate mode               : Constant
Bit rate                    : 384 kb/s
Channel(s)                  : 6 channels
Channel positions           : Front: L C R, Side: L R, LFE
Sampling rate               : 48.0 kHz
Frame rate                  : 31.250 FPS (1536 SPF)
Bit depth                   : 16 bits
Compression mode            : Lossy
Stream size                 : 120 MiB (18%)
Alignment                   : Aligned on interleaves
Interleave, duration        : 42  ms (1.00 video frame)
Interleave, preload duratio : 512  ms
Service kind                : Complete Main

Скриншоты

pic pic
pic pic

Добавлена 20 серия.

Последний раз редактировалось: Daiver (2018-05-18 00:17), всего редактировалось 11 раз(а)
22-Ноя-2017 19:32
подскажите пожалуйста когда же будет продолжение?
25-Дек-2017 07:15
эх, скорей бы 9 серию... :)))
27-Янв-2018 19:31
Спасибо за 10, скорей бы 11 серию! :)
10-Фев-2018 17:00
СПАСИБО!
27-Фев-2018 18:56
очень хочется продолжение....