Здесь и сейчас / Here and Now (2018) WEBRip [H.264/1080p] (1 сезон: 1-9 серии из 10) [IdeaFilm]

13-Фев-2018 21:07

Здесь и сейчас / Here and Now (2018) WEBRip [H.264/1080p] (1 сезон: 1-9 серии из 10) [IdeaFilm]


picТелекомпания: США, HBO
Жанр: Драма, комедия
Режиссер: Ута Бризвитц, Алан Болл, Джереми Подесва
В ролях: Холли Хантер, Соси Бэйкон, Джеррика Хинтон, Рэймонд Ли, Тим Роббинс, Дэниэл Дзоватто, Марван Салама, Джо Уильямсон, Некар Задеган
Описание:
История о многонациональной семье, которая живет в США: профессоре философии Грег Бишоп, его супруге-юристе Одри, их общем ребенке и трех приёмных детях - из Вьетнама, Колумбии и Сомали. За фасадом счастливого, прогрессивного семейства таится множество проблем, к которым со временем прибавляется ещё одна напасть - один из детей начинает наблюдать необъяснимые вещи, невидимые для других.


1xbet - Высокие коэффициенты. Большие выигрыши
http://bit.ly/2lyIZwl
Перевод: Профессиональный многоголосый - IDEAFILM
Продолжительность: ~ 01:00:00
Качество видео: WEBRip 1080p
Субтитры: Отсутствуют
Видео: MPEG-4 AVC, ~ 11 Mбит/с, 1920x1080
Аудио: Русский, английский (AС3, 6 ch, 384 Кбит/с)

Mediainfo:

Video
ID                          : 1
Format                      : AVC
Format/Info                 : Advanced Video Codec
Format profile              : Main@L4.1
Format settings, CABAC      : Yes
Format settings, RefFrames  : 4 frames
Codec ID                    : V_MPEG4/ISO/AVC
Duration                    : 1 h 0 min
Bit rate                    : 10.6 Mb/s
Width                       : 1 920 pixels
Height                      : 1 080 pixels
Display aspect ratio        : 16:9
Frame rate mode             : Constant
Frame rate                  : 23.976 (24000/1001) FPS
Standard                    : NTSC
Color space                 : YUV
Chroma subsampling          : 4:2:0
Bit depth                   : 8 bits
Scan type                   : Progressive
Bits/(Pixel*Frame)          : 0.214
Stream size                 : 4.46 GiB (91%)
Language                    : English
Default                     : Yes
Forced                      : No
Color range                 : Limited
Color primaries             : BT.709
Transfer characteristics    : BT.709
Matrix coefficients         : BT.709
Audio #1
ID                          : 2
Format                      : AC-3
Format/Info                 : Audio Coding 3
Format settings, Endianness : Big
Codec ID                    : A_AC3
Duration                    : 1 h 0 min
Bit rate mode               : Constant
Bit rate                    : 384 kb/s
Channel(s)                  : 6 channels
Channel positions           : Front: L C R, Side: L R, LFE
Sampling rate               : 48.0 kHz
Frame rate                  : 31.250 FPS (1536 SPF)
Bit depth                   : 16 bits
Compression mode            : Lossy
Stream size                 : 165 MiB (3%)
Title                       : IDEAFILM
Language                    : Russian
Service kind                : Complete Main
Default                     : Yes
Forced                      : No
Audio #2
ID                          : 3
Format                      : AC-3
Format/Info                 : Audio Coding 3
Codec ID                    : A_AC3
Duration                    : 59 min 21 s
Bit rate                    : 640 kb/s
Channel(s)                  : 6 channels
Sampling rate               : 48.0 kHz
Frame rate                  : 31.250 FPS (1536 SPF)
Compression mode            : Lossy
Stream size                 : 272 MiB (5%)
Language                    : English
Default                     : No
Forced                      : No

Скриншоты

pic pic pic pic

Добавлена 9 серия.