Здесь и сейчас / Here and Now (2018) WEBRip [XviD/400p] (1 сезон: 1-9 серии из 10) [IdeaFilm]

13-Фев-2018 21:07

Здесь и сейчас / Here and Now (2018) WEBRip [XviD/400p] (1 сезон: 1-9 серии из 10) [IdeaFilm]


picТелекомпания: США, HBO
Жанр: Драма, комедия
Режиссер: Ута Бризвитц, Алан Болл, Джереми Подесва
В ролях: Холли Хантер, Соси Бэйкон, Джеррика Хинтон, Рэймонд Ли, Тим Роббинс, Дэниэл Дзоватто, Марван Салама, Джо Уильямсон, Некар Задеган
Описание:
История о многонациональной семье, которая живет в США: профессоре философии Грег Бишоп, его супруге-юристе Одри, их общем ребенке и трех приёмных детях - из Вьетнама, Колумбии и Сомали. За фасадом счастливого, прогрессивного семейства таится множество проблем, к которым со временем прибавляется ещё одна напасть - один из детей начинает наблюдать необъяснимые вещи, невидимые для других.


1xbet - Высокие коэффициенты. Большие выигрыши
http://bit.ly/2lyIZwl
Перевод: Профессиональный многоголосый - IDEAFILM
Продолжительность: ~ 01:00:00
Качество видео: WEBRip
Субтитры: Отсутствуют
Видео: XviD MPEG-4, ~ 1800 Кбит/с, 720x400
Аудио: Русский (AС3, 6 ch, 384 Кбит/с)

Mediainfo:

Video
ID                          : 0
Format                      : MPEG-4 Visual
Format profile              : Advanced Simple@L5
Format settings, BVOP       : 2
Format settings, QPel       : No
Format settings, GMC        : No warppoints
Format settings, Matrix     : Default (H.263)
Muxing mode                 : Packed bitstream
Codec ID                    : XVID
Codec ID/Hint               : XviD
Duration                    : 1 h 0 min
Bit rate                    : 1 752 kb/s
Width                       : 720 pixels
Height                      : 400 pixels
Display aspect ratio        : 16:9
Frame rate                  : 23.976 (24000/1001) FPS
Color space                 : YUV
Chroma subsampling          : 4:2:0
Bit depth                   : 8 bits
Scan type                   : Progressive
Compression mode            : Lossy
Bits/(Pixel*Frame)          : 0.254
Stream size                 : 752 MiB (82%)
Writing library             : XviD 73
Audio
ID                          : 1
Format                      : AC-3
Format/Info                 : Audio Coding 3
Format settings, Endianness : Big
Codec ID                    : 2000
Duration                    : 1 h 0 min
Bit rate mode               : Constant
Bit rate                    : 384 kb/s
Channel(s)                  : 6 channels
Channel positions           : Front: L C R, Side: L R, LFE
Sampling rate               : 48.0 kHz
Frame rate                  : 31.250 FPS (1536 SPF)
Bit depth                   : 16 bits
Compression mode            : Lossy
Stream size                 : 165 MiB (18%)
Alignment                   : Aligned on interleaves
Interleave, duration        : 42  ms (1.00 video frame)
Interleave, preload duratio : 512  ms
Service kind                : Complete Main

Скриншоты

pic pic pic pic

Добавлена 9 серия.